Gold 2018 Hindi 720p DTHRip x264 AAC 5.1 { TaRa }.mkv

  • Category Movies
  • Type Bollywood
  • Language Hindi
  • Total size 1.2 GB
  • Uploaded By SkTara
  • Downloads 1142
  • Last checked 16 minutes ago
  • Date uploaded 7 hours ago
  • Seeders 94
  • Leechers 151

Assassins and the Missing Gold

Not much is known about the plot at the moment. Stay tuned for more details.

Infohash : D73E44EF3E0E4FDEAF276E1635C9D99DE65277B0


Gold 2018 Hindi 720p DTHRip x264 AAC 5.1 { TaRa }.mkv


===================================================================
General
Complete name : Gold 2018 Hindi 720p DTHRip x264 AAC 5.1 { TaRa }.mkv
Format : Matroska
Format version : Version 4
File size : 1.18 GiB
Duration : 2 h 20 min
Overall bit rate : 1 203 kb/s
===================================================================
Video
ID : 1
Format : AVC
Format/Info : Advanced Video Codec
Format profile : [email protected]
Format settings : CABAC / 4 Ref Frames
Format settings, CABAC : Yes
Format settings, ReFrames : 4 frames
Codec ID : V_MPEG4/ISO/AVC
Duration : 2 h 20 min
Bit rate : 1 000 kb/s
Width : 1 280 pixels
Height : 544 pixels
Display aspect ratio : 2.35:1
Frame rate mode : Constant
Frame rate : 25.000 FPS
Color space : YUV
Chroma subsampling : 4:2:0
Bit depth : 8 bits
Scan type : Progressive
Bits/(Pixel*Frame) : 0.057
Stream size : 1 013 MiB (84%)
Title : .....:::::: TaRa :::::.....
Language : Hindi
Default : Yes
Forced : No
===================================================================
Audio
ID : 2
Format : AAC LC
Format/Info : Advanced Audio Codec Low Complexity
Codec ID : A_AAC-2
Duration : 2 h 20 min
Bit rate : 192 kb/s
Channel(s) : 6 channels
Channel layout : C L R Ls Rs LFE
Sampling rate : 48.0 kHz
Frame rate : 46.875 FPS (1024 SPF)
Compression mode : Lossy
Delay relative to video : -80 ms
Stream size : 193 MiB (16%)
Title : .....:::::: TaRa :::::.....
Language : Hindi
Default : Yes
Forced : No
===================================================================































Files:

Gold 2018 Hindi 720p DTHRip x264 AAC 5.1 { TaRa }
  • Gold 2018 Hindi 720p DTHRip x264 AAC 5.1 { TaRa }.mkv (1.2 GB)
  • gold-2_poster_.jpg (59.4 KB)
  • maxresdefault.jpg (179.9 KB)
  • Torrent TaRa Digital Team PC Info.nfo (6.5 KB)
  • Torrent TaRa Digital Team.txt (0.5 KB)

There are currently no comments. Feel free to leave one :)

Code:

  • udp://tracker.coppersurfer.tk:6969/announce
  • udp://tracker.ex.ua:80/announce
  • udp://shadowshq.yi.org:6969/announce
  • udp://eddie4.nl:6969/announce
  • udp://tracker.leechers-paradise.org:6969/announce
  • udp://tracker.opentrackr.org:1337/announce
  • udp://p4p.arenabg.ch:1337/announce
  • udp://p4p.arenabg.com:1337/announce
  • udp://9.rarbg.me:2780/announce
  • udp://9.rarbg.to:2790/announce
  • udp://tracker.coppersurfer.tk:80/announce
  • udp://tracker.vanitycore.co:6969/announce
  • udp://public.popcorn-tracker.org:6969/announce
  • udp://tracker.opentrackr.org:1337/announce
  • udp://tracker.justseed.it:1337/announce
SitemapVisages Villages FRENCH BluRay 720p 2018 | Anthony Bourdain Parts Unknown - Season 12 | Kojak (1973) TARJETA SD 16m 32m 64mb 128m 256m 512mb 1gb 2gb SECURE DIGITAL sdandard | Ford Escort RS 2000 | Clown Piano Keyboard