Incredibles 2 (2018) (1080p BluRay x265 HEVC 10bit AAC 7.1 Joy) [...

  • Category Movies
  • Type HEVC/x265
  • Language English
  • Total size 1.5 GB
  • Uploaded By UTRCorp
  • Downloads 77
  • Last checked 22 minutes ago
  • Date uploaded 8 hours ago
  • Seeders 25
  • Leechers 23

Incredibles 2

ActionAdventureAnimationFamily

Elastigirl springs into action to save the day, while Mr. Incredible faces his greatest challenge yet – taking care of the problems of his three children.

Infohash : 8D42EA84A67D9705EA7D5EB938C76B4AA1F1F0C5








[CENTER]

Media Information

Media Information

Code:

General
Format : Matroska
Format version : Version 4 / Version 2
File size : 1.53 GiB
Duration : 1 h 57 min
Overall bit rate : 1 858 kb/s
Movie name : Encoder Output\Incredibles 2 2018 (1080p x265 10bit FS91 Joy)[UTR]
Encoded date : UTC 2018-11-05 22:16:18
Writing application : mkvmerge v28.2.0 ('The Awakening') 64-bit
Writing library : libebml v1.3.6 + libmatroska v1.4.9
Cover : Yes
Attachments : cover.jpg
Writing frontend : StaxRip v1.8.2.0

Video
ID : 1
Format : HEVC
Format/Info : High Efficiency Video Coding
Format profile : Main [email protected]@Main
Codec ID : V_MPEGH/ISO/HEVC
Duration : 1 h 57 min
Bit rate : 1 499 kb/s
Width : 1 920 pixels
Height : 800 pixels
Display aspect ratio : 2.40:1
Frame rate mode : Constant
Frame rate : 23.976 (24000/1001) FPS
Color space : YUV
Chroma subsampling : 4:2:0
Bit depth : 10 bits
Bits/(Pixel*Frame) : 0.041
Stream size : 1.23 GiB (81%)
Writing library : x265 2.8+19-bcdc610cf5f0:[Windows][MSVC 1914][64 bit] 10bit
Encoding settings : cpuid=1111039 / frame-threads=3 / numa-pools=8 / wpp / no-pmode / no-pme / no-psnr / ssim / log-level=2 / input-csp=1 / input-res=1920x800 / interlace=0 / total-frames=169514 / level-idc=0 / high-tier=1 / uhd-bd=0 / ref=4 / no-allow-non-conformance / no-repeat-headers / annexb / no-aud / no-hrd / info / hash=0 / no-temporal-layers / open-gop / min-keyint=23 / keyint=250 / gop-lookahead=0 / bframes=4 / b-adapt=2 / b-pyramid / bframe-bias=0 / rc-lookahead=80 / lookahead-slices=4 / scenecut=40 / radl=0 / no-intra-refresh / ctu=64 / min-cu-size=8 / rect / no-amp / max-tu-size=32 / tu-inter-depth=1 / tu-intra-depth=1 / limit-tu=0 / rdoq-level=2 / dynamic-rd=0.00 / ssim-rd / signhide / no-tskip / nr-intra=0 / nr-inter=0 / no-constrained-intra / strong-intra-smoothing / max-merge=3 / limit-refs=3 / limit-modes / me=3 / subme=3 / merange=57 / temporal-mvp / weightp / no-weightb / no-analyze-src-pics / deblock=0:0 / sao / no-sao-non-deblock / rd=4 / no-early-skip / rskip / no-fast-intra / no-tskip-fast / no-cu-lossless / no-b-intra / no-splitrd-skip / rdpenalty=0 / psy-rd=0.00 / psy-rdoq=1.00 / no-rd-refine / no-lossless / cbqpoffs=0 / crqpoffs=0 / rc=abr / bitrate=1500 / qcomp=0.60 / qpstep=4 / stats-write=0 / stats-read=2 / cplxblur=20.0 / qblur=0.5 / vbv-maxrate=4500 / vbv-bufsize=9000 / vbv-init=0.9 / ipratio=1.40 / pbratio=1.30 / aq-mode=2 / aq-strength=0.80 / cutree / zone-count=0 / no-strict-cbr / qg-size=32 / no-rc-grain / qpmax=69 / qpmin=0 / no-const-vbv / sar=0 / overscan=0 / videoformat=5 / range=0 / colorprim=2 / transfer=2 / colormatrix=2 / chromaloc=0 / display-window=0 / max-cll=0,0 / min-luma=0 / max-luma=1023 / log2-max-poc-lsb=8 / vui-timing-info / vui-hrd-info / slices=1 / no-opt-qp-pps / no-opt-ref-list-length-pps / multi-pass-opt-rps / scenecut-bias=0.05 / no-opt-cu-delta-qp / no-aq-motion / no-hdr / no-hdr-opt / no-dhdr10-opt / no-idr-recovery-sei / analysis-reuse-level=10 / scale-factor=0 / refine-intra=0 / refine-inter=0 / refine-mv=0 / limit-sao / ctu-info=0 / no-lowpass-dct / refine-mv-type=0 / copy-pic=1 / max-ausize-factor=1.0 / no-dynamic-refine / no-single-sei
Default : Yes
Forced : No

Audio #1
ID : 2
Format : AAC
Format/Info : Advanced Audio Codec
Format profile : HE-AAC / LC
Codec ID : A_AAC
Duration : 1 h 57 min
Bit rate : 276 kb/s
Channel(s) : 7 channels
Channel(s)_Original : 8 channels
Channel positions : Front: L C R, Side: L R, Back: L R, LFE
Sampling rate : 48.0 kHz / 24.0 kHz
Frame rate : 23.438 FPS (1024 spf)
Compression mode : Lossy
Delay relative to video : 31 ms
Stream size : 233 MiB (15%)
Language : English
Default : No
Forced : No

Audio #2
ID : 3
Format : AAC
Format/Info : Advanced Audio Codec
Format profile : HE-AAC / LC
Codec ID : A_AAC
Duration : 1 h 57 min
Bit rate : 43.5 kb/s
Channel(s) : 2 channels
Channel positions : Front: L R
Sampling rate : 48.0 kHz / 24.0 kHz
Frame rate : 23.438 FPS (1024 spf)
Compression mode : Lossy
Delay relative to video : 31 ms
Stream size : 36.7 MiB (2%)
Title : Commentary
Language : English
Default : No
Forced : No

Subtitle #1
ID : 4
Format : PGS
Muxing mode : zlib
Codec ID : S_HDMV/PGS
Codec ID/Info : Picture based subtitle format used on BDs/HD-DVDs
Duration : 1 h 56 min
Bit rate : 42.7 kb/s
Count of elements : 3522
Stream size : 35.5 MiB (2%)
Language : English
Default : No
Forced : No

Subtitle #2
ID : 5
Format : VobSub
Muxing mode : zlib
Codec ID : S_VOBSUB
Codec ID/Info : Picture based subtitle format used on DVDs
Duration : 1 h 46 min
Bit rate : 12.2 kb/s
Count of elements : 1736
Stream size : 9.25 MiB (1%)
Language : Portuguese
Default : No
Forced : No

Subtitle #3
ID : 6
Format : VobSub
Muxing mode : zlib
Codec ID : S_VOBSUB
Codec ID/Info : Picture based subtitle format used on DVDs
Duration : 1 h 46 min
Bit rate : 6 890 b/s
Count of elements : 1757
Stream size : 5.25 MiB (0%)
Language : Chinese
Default : No
Forced : No

Subtitle #4
ID : 7
Format : VobSub
Muxing mode : zlib
Codec ID : S_VOBSUB
Codec ID/Info : Picture based subtitle format used on DVDs
Duration : 1 h 46 min
Bit rate : 8 482 b/s
Count of elements : 1753
Stream size : 6.46 MiB (0%)
Language : Korean
Default : No
Forced : No

Subtitle #5
ID : 8
Format : VobSub
Muxing mode : zlib
Codec ID : S_VOBSUB
Codec ID/Info : Picture based subtitle format used on DVDs
Duration : 1 h 46 min
Bit rate : 8 127 b/s
Count of elements : 1757
Stream size : 6.19 MiB (0%)
Language : Thai
Default : No
Forced : No

Subtitle #6
ID : 9
Format : UTF-8
Codec ID : S_TEXT/UTF8
Codec ID/Info : UTF-8 Plain Text
Duration : 1 h 49 min
Bit rate : 108 b/s
Count of elements : 1572
Stream size : 87.0 KiB (0%)
Language : Arabic
Default : No
Forced : No

Subtitle #7
ID : 10
Format : UTF-8
Codec ID : S_TEXT/UTF8
Codec ID/Info : UTF-8 Plain Text
Duration : 1 h 50 min
Bit rate : 166 b/s
Count of elements : 1841
Stream size : 135 KiB (0%)
Language : Bengali
Default : No
Forced : No

Subtitle #8
ID : 11
Format : UTF-8
Codec ID : S_TEXT/UTF8
Codec ID/Info : UTF-8 Plain Text
Duration : 1 h 56 min
Bit rate : 62 b/s
Count of elements : 1146
Stream size : 53.8 KiB (0%)
Language : Danish
Default : No
Forced : No

Subtitle #9
ID : 12
Format : UTF-8
Codec ID : S_TEXT/UTF8
Codec ID/Info : UTF-8 Plain Text
Duration : 1 h 47 min
Bit rate : 75 b/s
Count of elements : 1298
Stream size : 59.1 KiB (0%)
Language : Dutch
Default : No
Forced : No

Subtitle #10
ID : 13
Format : UTF-8
Codec ID : S_TEXT/UTF8
Codec ID/Info : UTF-8 Plain Text
Duration : 1 h 47 min
Bit rate : 121 b/s
Count of elements : 1927
Stream size : 95.7 KiB (0%)
Language : Persian
Default : No
Forced : No

Subtitle #11
ID : 14
Format : UTF-8
Codec ID : S_TEXT/UTF8
Codec ID/Info : UTF-8 Plain Text
Duration : 1 h 46 min
Bit rate : 68 b/s
Count of elements : 1666
Stream size : 53.3 KiB (0%)
Language : French
Default : No
Forced : No

Subtitle #12
ID : 15
Format : UTF-8
Codec ID : S_TEXT/UTF8
Codec ID/Info : UTF-8 Plain Text
Duration : 1 h 46 min
Bit rate : 99 b/s
Count of elements : 1814
Stream size : 78.1 KiB (0%)
Language : Hebrew
Default : No
Forced : No

Subtitle #13
ID : 16
Format : UTF-8
Codec ID : S_TEXT/UTF8
Codec ID/Info : UTF-8 Plain Text
Duration : 1 h 48 min
Bit rate : 64 b/s
Count of elements : 1746
Stream size : 50.9 KiB (0%)
Language : Indonesian
Default : No
Forced : No

Subtitle #14
ID : 17
Format : UTF-8
Codec ID : S_TEXT/UTF8
Codec ID/Info : UTF-8 Plain Text
Duration : 1 h 47 min
Bit rate : 74 b/s
Count of elements : 1715
Stream size : 58.7 KiB (0%)
Language : Malay
Default : No
Forced : No

Subtitle #15
ID : 18
Format : UTF-8
Codec ID : S_TEXT/UTF8
Codec ID/Info : UTF-8 Plain Text
Duration : 1 h 46 min
Bit rate : 71 b/s
Count of elements : 1757
Stream size : 56.0 KiB (0%)
Language : Spanish
Default : No
Forced : No

Subtitle #16
ID : 19
Format : UTF-8
Codec ID : S_TEXT/UTF8
Codec ID/Info : UTF-8 Plain Text
Duration : 1 h 57 min
Bit rate : 130 b/s
Count of elements : 1760
Stream size : 113 KiB (0%)
Language : Thai
Default : No
Forced : No

Subtitle #17
ID : 20
Format : UTF-8
Codec ID : S_TEXT/UTF8
Codec ID/Info : UTF-8 Plain Text
Duration : 1 h 46 min
Bit rate : 78 b/s
Count of elements : 1581
Stream size : 61.5 KiB (0%)
Language : Turkish
Default : No
Forced : No

Subtitle #18
ID : 21
Format : UTF-8
Codec ID : S_TEXT/UTF8
Codec ID/Info : UTF-8 Plain Text
Duration : 1 h 46 min
Bit rate : 95 b/s
Count of elements : 1578
Stream size : 74.4 KiB (0%)
Language : Vietnamese
Default : No
Forced : No

Menu
00:00:00.000 : en:Chapter 01
00:03:22.327 : en:Chapter 02
00:08:53.616 : en:Chapter 03
00:09:36.784 : en:Chapter 04
00:13:38.275 : en:Chapter 05
00:15:44.735 : en:Chapter 06
00:21:19.736 : en:Chapter 07
00:23:28.281 : en:Chapter 08
00:27:08.793 : en:Chapter 09
00:28:59.571 : en:Chapter 10
00:35:10.900 : en:Chapter 11
00:39:07.845 : en:Chapter 12
00:42:43.894 : en:Chapter 13
00:43:42.411 : en:Chapter 14
00:47:35.352 : en:Chapter 15
00:48:53.889 : en:Chapter 16
00:54:15.585 : en:Chapter 17
00:56:16.039 : en:Chapter 18
01:00:58.696 : en:Chapter 19
01:02:01.884 : en:Chapter 20
01:06:55.511 : en:Chapter 21
01:09:18.237 : en:Chapter 22
01:11:28.200 : en:Chapter 23
01:12:37.686 : en:Chapter 24
01:14:39.266 : en:Chapter 25
01:18:00.967 : en:Chapter 26
01:20:32.536 : en:Chapter 27
01:25:01.763 : en:Chapter 28
01:27:59.440 : en:Chapter 29
01:31:53.925 : en:Chapter 30
01:33:26.434 : en:Chapter 31
01:36:25.237 : en:Chapter 32
01:37:45.192 : en:Chapter 33
01:43:56.897 : en:Chapter 34
01:45:35.912 : en:Chapter 35
01:47:30.944 : en:Chapter 36



Source Information

Code:

Release:
Incredibles.2.2018.1080p.BluRay.AVC.DTS-HD.MA.7.1-FGT (43.8 GB)




We have no issue with individuals posting or re-uploading our torrents on a platform we aren't on. However, if this is something you'd like to do, please do so in a 'as-is' format. We ask that you do not create a new torrent, include all descriptions you see above including the UTR logo, tags, notes and screenshots. If you'd like to become a permanent poster on a website we don't post to, feel free to get in contact with a UniTeam member.

Files:

  • Incredibles 2 2018 (1080p x265 10bit FS91 Joy).mkv (1.5 GB)

There are currently no comments. Feel free to leave one :)

Code:

  • udp://mgtracker.org:6969/announce
  • udp://tracker.coppersurfer.tk:6969/announce
  • udp://9.rarbg.com:2710/announce
  • udp://9.rarbg.to:2710/announce
  • udp://tracker.mgtracker.org:2710/announce
  • udp://public.popcorn-tracker.org:6969/announce
  • udp://tracker.torrent.eu.org:451/announce
  • udp://exodus.desync.com:6969/announce
  • udp://tracker.tiny-vps.com:6969/announce
  • udp://tracker.torrent.eu.org:451/announce
  • udp://open.demonii.si:1337/announce
  • udp://tracker.opentrackr.org:1337/announce
SitemapThe aim of this project is to identify and discuss relevant Synergies, Dependencies, Vulnerabilities and Conflicts between Air Traffic Services and Airport Operations. | Haja Taisei Dangaiou | Le Livre De La Jungle 2(2013 ) 05.11.1822:04 Uhr Summer Dance 2018 - Megamix Top 100 Dance256 kbit/s 0 / 02.245 Hits VID P2P DDL 0 Kommentare | WGM Acorn Jelly Couple | NUEVO Canon EOS 200D Camera with 18-55mm STM Lens (Black)